HUB Portals

Name Pacific Rim Uprising (2018) 1080p BluRay Hindi DD 5.1Ch - Eng DD 5.1Ch ~ MANN KT...
Size 8.3 GB
Category Movies
Type Dubs/Dual
Language English
Date Added 2 months ago
Uploaded By THEGABRU
Downloads 9621
Seeders 5
Leechers 1
Info 6F6D64606ED715E8DD186D0581BB860BD4D5DDE7
Download
Note: Magnet link will launch on download if torrent file is blocked.

Description

Pacific Rim Uprising (2018) 1080p BluRay Hindi DD 5.1Ch - Eng DD 5.1Ch ~ MANN KT



General

Format : Matroska
Format version : Version 4 / Version 2
File size : 8.25 GiB
Duration : 1 h 50 min
Overall bit rate : 10.7 Mb/s
Movie name : MANN KT


Video
ID : 1
Format : AVC
Format/Info : Advanced Video Codec
Format profile : [email protected]
Format settings, CABAC : Yes
Format settings, ReFrames : 5 frames
Codec ID : V_MPEG4/ISO/AVC
Duration : 1 h 50 min
Bit rate : 9 255 kb/s
Width : 1 920 pixels
Height : 800 pixels
Display aspect ratio : 2.40:1
Frame rate mode : Constant
Frame rate : 23.976 FPS
Color space : YUV
Chroma subsampling : 4:2:0
Bit depth : 8 bits
Scan type : Progressive
Bits/(Pixel*Frame) : 0.251
Stream size : 7.15 GiB (87%)
Title : MANN KT
Language : English
Default : Yes
Forced : No

Audio #1
ID : 2
Format : E-AC-3
Format/Info : Enhanced Audio Coding 3
Format settings, Endianness : Big
Codec ID : A_EAC3
Duration : 1 h 50 min
Bit rate mode : Constant
Bit rate : 500 b/s
Channel(s) : 6 channels
Channel positions : Front: L C R, Side: L R, LFE
Sampling rate : 48.0 kHz
Frame rate : 187.500 FPS (256 spf)
Compression mode : Lossy
Stream size : 608 MiB (7%)
Title : MANN KT
Language : Hindi
Default : Yes
Forced : No

Audio #2
ID : 3
Format : AC-3
Format/Info : Audio Coding 3
Mode extension : CM (complete main)
Format settings, Endianness : Big
Codec ID : A_AC3
Duration : 1 h 50 min
Bit rate mode : Constant
Bit rate : 640 kb/s
Channel(s) : 6 channels
Channel positions : Front: L C R, Side: L R, LFE
Sampling rate : 48.0 kHz
Frame rate : 31.250 FPS (1536 spf)
Bit depth : 16 bits
Compression mode : Lossy
Stream size : 507 MiB (6%)
Title : MANN KT
Language : English
Default : No
Forced : No

Text #1
ID : 4
Format : PGS
Muxing mode : zlib
Codec ID : S_HDMV/PGS
Codec ID/Info : Picture based subtitle format used on BDs/HD-DVDs
Duration : 42 min 41 s
Bit rate : 836 b/s
Count of elements : 118
Stream size : 262 KiB (0%)
Title : MANN KT
Language : English
Default : No
Forced : No

Text #2
ID : 5
Format : PGS
Muxing mode : zlib
Codec ID : S_HDMV/PGS
Codec ID/Info : Picture based subtitle format used on BDs/HD-DVDs
Duration : 1 h 49 min
Bit rate : 9 971 b/s
Count of elements : 2948
Stream size : 7.84 MiB (0%)
Title : MANN KT
Language : Hindi
Default : No
Forced : No

SCREENSHOTS



ENJOY