HUB Portals

Name Pacific Rim: Uprising (2018) 1080p 10bit BluRay x265 HEVC [Org BD 7.1 Hindi (768...
Size 3.5 GB
Category Movies
Type Dubs/Dual
Language Hindi
Date Added 4 months ago
Uploaded By abuhamza420
Downloads 14001
Seeders 5
Leechers 2
Info 7E138E5BCFD687426C77511D6B51B6D6C2294CA1
Download
Note: Magnet link will launch on download if torrent file is blocked.

Description



Rise up...



Pacific Rim Uprising (2018) 1080p 10bit BluRay x265 HEVC [Org BD 7.1 Hindi (768Kbps) + 8CH Eng] MSubs ~ Jitu


Org Untouched Bluray DD+ 7.1 768Kbps (Core 448Kbps) Hindi Audio By MrRajput {Thanks}







Code:

Format                                   : Matroska
Format version                           : Version 4 / Version 2
File size                                : 3.44 GiB
Duration                                 : 1 h 50 min
Overall bit rate                         : 4 449 kb/s

Video
ID                                       : 1
Format                                   : HEVC
Format/Info                              : High Efficiency Video Coding
Format profile                           : Main [email protected]@Main
Codec ID                                 : V_MPEGH/ISO/HEVC
Duration                                 : 1 h 50 min
Bit rate                                 : 3 349 kb/s
Width                                    : 1 920 pixels
Height                                   : 800 pixels
Display aspect ratio                     : 2.40:1
Frame rate mode                          : Constant
Frame rate                               : 23.976 (24000/1001) FPS
Color space                              : YUV
Chroma subsampling                       : 4:2:0
Bit depth                                : 10 bits
Bits/(Pixel*Frame)                       : 0.091
Stream size                              : 2.59 GiB (75%)
Default                                  : Yes
Forced                                   : No

Audio #1
ID                                       : 2
Format                                   : E-AC-3
Format/Info                              : Enhanced Audio Coding 3
Codec ID                                 : A_EAC3
Duration                                 : 1 h 50 min
Bit rate mode                            : Constant
Bit rate                                 : 500 b/s
Channel(s)                               : 8 channels
Channel(s)_Original                      : 6 channels
Channel positions                        : Front: L C R, Side: L R, LFE
Sampling rate                            : 48.0 kHz
Frame rate                               : 187.500 FPS (256 SPF)
Compression mode                         : Lossy
Stream size                              : 608 MiB (17%)
Title                                    : Org BD 7.1 768Kbps (Core 448Kbps)
Language                                 : Hindi
Service kind                             : Complete Main
Default                                  : Yes
Forced                                   : Yes

Audio #2
ID                                       : 3
Format                                   : AAC
Format/Info                              : Advanced Audio Codec
Format profile                           : HE-AAC / LC
Format settings                          : Explicit
Codec ID                                 : A_AAC-2
Duration                                 : 1 h 50 min
Bit rate                                 : 307 kb/s
Channel(s)                               : 7 channels
Channel(s)_Original                      : 8 channels
Channel positions                        : Front: L C R, Side: L R, Back: L R, LFE
Sampling rate                            : 48.0 kHz / 24.0 kHz
Frame rate                               : 23.438 FPS (1024 SPF)
Compression mode                         : Lossy
Delay relative to video                  : 31 ms
Stream size                              : 243 MiB (7%)
Language                                 : English
Default                                  : No
Forced                                   : No

Text #1
ID                                       : 4
Format                                   : PGS
Muxing mode                              : zlib
Codec ID                                 : S_HDMV/PGS
Codec ID/Info                            : Picture based subtitle format used on BDs/HD-DVDs
Duration                                 : 1 h 49 min
Bit rate                                 : 28.2 kb/s
Count of elements                        : 2948
Stream size                              : 22.2 MiB (1%)
Title                                    : Hindi PGS
Language                                 : Hindi
Default                                  : No
Forced                                   : No

Text #2
ID                                       : 5
Format                                   : PGS
Muxing mode                              : zlib
Codec ID                                 : S_HDMV/PGS
Codec ID/Info                            : Picture based subtitle format used on BDs/HD-DVDs
Duration                                 : 1 h 40 min
Bit rate                                 : 45.0 kb/s
Count of elements                        : 3200
Stream size                              : 32.2 MiB (1%)
Title                                    : Eng PGS
Language                                 : English
Default                                  : Yes
Forced                                   : Yes














Quote:

Source : PSA
Pacific.Rim.Uprising.2018.1080p.BluRay.REMUX.AVC.DTS-HD.MA.TrueHD.7.1.Atmos | 33.52 GB