HUB Portals

Name Batman v Superman Dawn of Justice (2016) Extended 1080p BluRay Hindi DD 5.1Ch -...
Size 12.4 GB
Category Movies
Type Dubs/Dual
Language English
Date Added 4 months ago
Uploaded By THEGABRU
Downloads 19
Seeders 1
Leechers 5
Info B562FFB4DBCE1C286043874C2AEDA7704953F36D
Download
Note: Magnet link will launch on download if torrent file is blocked.

Description

Batman v Superman Dawn of Justice (2016) Extended 1080p BluRay Hindi DD 5.1Ch - Eng DD 5.1Ch ~ MANN KT



General

Format : Matroska
Format version : Version 4 / Version 2
File size : 12.3 GiB
Duration : 3 h 2 min
Overall bit rate : 9 684 kb/s
Movie name : MANN KT


Video
ID : 1
Format : AVC
Format/Info : Advanced Video Codec
Format profile : [email protected]
Format settings, CABAC : Yes
Format settings, ReFrames : 5 frames
Codec ID : V_MPEG4/ISO/AVC
Duration : 3 h 2 min
Bit rate : 8 791 kb/s
Width : 1 920 pixels
Height : 800 pixels
Display aspect ratio : 2.40:1
Frame rate mode : Constant
Frame rate : 23.976 FPS
Color space : YUV
Chroma subsampling : 4:2:0
Bit depth : 8 bits
Scan type : Progressive
Bits/(Pixel*Frame) : 0.239
Stream size : 11.2 GiB (91%)
Title : MANN KT
Language : English
Default : Yes
Forced : No

Audio #1
ID : 2
Format : AC-3
Format/Info : Audio Coding 3
Mode extension : CM (complete main)
Format settings, Endianness : Big
Codec ID : A_AC3
Duration : 3 h 2 min
Bit rate mode : Constant
Bit rate : 448 kb/s
Channel(s) : 6 channels
Channel positions : Front: L C R, Side: L R, LFE
Sampling rate : 48.0 kHz
Frame rate : 31.250 FPS (1536 spf)
Bit depth : 16 bits
Compression mode : Lossy
Stream size : 585 MiB (5%)
Title : MANN KT
Language : Hindi
Default : Yes
Forced : No

Audio #2
ID : 3
Format : AC-3
Format/Info : Audio Coding 3
Mode extension : CM (complete main)
Format settings, Endianness : Big
Codec ID : A_AC3
Duration : 3 h 2 min
Bit rate mode : Constant
Bit rate : 448 kb/s
Channel(s) : 6 channels
Channel positions : Front: L C R, Side: L R, LFE
Sampling rate : 48.0 kHz
Frame rate : 31.250 FPS (1536 spf)
Bit depth : 16 bits
Compression mode : Lossy
Stream size : 585 MiB (5%)
Title : MANN KT
Language : English
Default : No
Forced : No

SCREENSHOTS



ENJOY