HUB Portals

Name Sanju (2018) Hindi 720p New HQ PRE x264 AAC [MovCr Exclusive]
Size 2.0 GB
Category Movies
Type Bollywood
Language Hindi
Date Added 4 months ago
Uploaded By ictv
Downloads 1949
Seeders 4
Leechers 0
Info 8BE7F43061248599C42CF3D7DF1BDC73BBB8AF61
Download
Note: Magnet link will launch on download if torrent file is blocked.

Description

Visit Our Site  www.movcr.com

Sanju (2018) Hindi 720p New HQ PRE x264 AAC [MovCr Exclusive]


https://www.imdb.com/title/tt6452574/




General
Unique ID                   : 153547695544124101429244787496898987537 (0x738435E19FE65F4D458EA57789D30611)
Complete name               : Sanju (2018) Hindi 720p New HQ PRE x264 AAC [MovCr Exclusive]\[www.MovCr.com] - Sanju (2018) Hindi 720p New HQ PRE x264 AAC [MovCr Exclusive].mkv
Format                      : Matroska
Format version              : Version 4 / Version 2
File size                   : 2.00 GiB
Duration                    : 2 h 29 min
Overall bit rate            : 1 914 kb/s
Movie name                  : www.MovCr.com
Encoded date                : UTC 2018-06-29 18:16:45
Writing application         : mkvmerge v23.0.0 ('The Bride Said No') 64-bit
Writing library             : libebml v1.3.6 + libmatroska v1.4.9

Video
ID                          : 1
Format                      : AVC
Format/Info                 : Advanced Video Codec
Format profile              : [email protected]
Format settings, CABAC      : Yes
Format settings, ReFrames   : 4 frames
Codec ID                    : V_MPEG4/ISO/AVC
Duration                    : 2 h 29 min
Bit rate                    : 1 751 kb/s
Width                       : 1 280 pixels
Height                      : 566 pixels
Display aspect ratio        : 2.40:1
Original display aspect rat : 2.40:1
Frame rate mode             : Constant
Frame rate                  : 25.000 FPS
Color space                 : YUV
Chroma subsampling          : 4:2:0
Bit depth                   : 8 bits
Scan type                   : Progressive
Bits/(Pixel*Frame)          : 0.097
Stream size                 : 1.83 GiB (92%)
Title                       : www.MovCr.com
Writing library             : x264 core 155 r2893 b00bcaf
Encoding settings           : cabac=1 / ref=2 / deblock=1:0:0 / analyse=0x1:0x111 / me=hex / subme=6 / psy=1 / psy_rd=1.00:0.00 / mixed_ref=1 / me_range=16 / chroma_me=1 / trellis=1 / 8x8dct=0 / cqm=0 / deadzone=21,11 / fast_pskip=1 / chroma_qp_offset=-2 / threads=12 / lookahead_threads=2 / sliced_threads=0 / nr=0 / decimate=1 / interlaced=0 / bluray_compat=0 / constrained_intra=0 / bframes=3 / b_pyramid=2 / b_adapt=1 / b_bias=0 / direct=1 / weightb=1 / open_gop=0 / weightp=1 / keyint=250 / keyint_min=25 / scenecut=40 / intra_refresh=0 / rc_lookahead=30 / rc=crf / mbtree=1 / crf=21.0 / qcomp=0.60 / qpmin=0 / qpmax=69 / qpstep=4 / vbv_maxrate=14000 / vbv_bufsize=14000 / crf_max=0.0 / nal_hrd=none / filler=0 / ip_ratio=1.40 / aq=1:1.00
Default                     : Yes
Forced                      : No
Color range                 : Limited
Color primaries             : BT.601 PAL
Transfer characteristics    : BT.709
Matrix coefficients         : BT.601

Audio
ID                          : 2
Format                      : AAC
Format/Info                 : Advanced Audio Codec
Format profile              : LC
Codec ID                    : A_AAC
Duration                    : 2 h 29 min
Bit rate                    : 160 kb/s
Channel(s)                  : 2 channels
Channel positions           : Front: L R
Sampling rate               : 48.0 kHz
Frame rate                  : 46.875 FPS (1024 spf)
Compression mode            : Lossy
Delay relative to video     : -21 ms
Stream size                 : 172 MiB (8%)
Title                       : www.MovCr.com
Default                     : Yes
Forced                      : No