HUB Portals

Name Sanju (2018) PreDvDRip Hindi 1GB x264 AAC (Cleaned Audio) - LatestHDMovies
Size 1,021.8 MB
Category Movies
Type Bollywood
Language Hindi
Date Added 2 weeks ago
Uploaded By LHDM
Downloads 752
Seeders 35
Leechers 0
Info 9755E1D7D6DF203FCA2E10C571905FF08AC901EA
Download
Note: Magnet link will launch on download if torrent file is blocked.

Description






[[>>SAMPLE<<]]
https://oload.stream/f/nJvB_f1dTnA/vlc-record-2018-06-30-06h48m11s-LatestHDMovies___TeamSHAHID-.mp4







General
Unique ID : 11598040260890250410264187584940937238 (0x8B9B3889FB9DFCE0B693FCE4AE11016)
Complete name : C:\Users\SHAHID\Downloads\Video\Sanju (2018) PreDvDRip Hindi 1GB x264 AAC (Cleaned Audio) - LatestHDMovies.mkv
Format : Matroska
Format version : Version 4 / Version 2
File size : 1 022 MiB
Duration : 2 h 29 min
Overall bit rate : 955 kb/s
Movie name : LatestHDMovies | TeamSHAHID
Encoded date : UTC 2018-06-30 01:40:32
Writing application : mkvmerge v24.0.0 ('Beyond The Pale') 32-bit
Writing library : libebml v1.3.6 + libmatroska v1.4.9
Cover : Yes
Attachments : Cover.jpg

Video
ID : 1
Format : AVC
Format/Info : Advanced Video Codec
Format profile : [email protected]
Format settings : CABAC / 8 Ref Frames
Format settings, CABAC : Yes
Format settings, ReFrames : 8 frames
Codec ID : V_MPEG4/ISO/AVC
Duration : 2 h 29 min
Bit rate : 873 kb/s
Width : 704 pixels
Height : 304 pixels
Display aspect ratio : 2.35:1
Frame rate mode : Constant
Frame rate : 25.000 FPS
Color space : YUV
Chroma subsampling : 4:2:0
Bit depth : 8 bits
Scan type : Progressive
Bits/(Pixel*Frame) : 0.163
Stream size : 934 MiB (91%)
Title : LatestHDMovies | TeamSHAHID
Writing library : x264 core 155 r2901 7d0ff22
Encoding settings : cabac=1 / ref=8 / deblock=1:-1:-1 / analyse=0x3:0x133 / me=umh / subme=9 / psy=1 / psy_rd=1.00:0.15 / mixed_ref=1 / me_range=16 / chroma_me=1 / trellis=2 / 8x8dct=1 / cqm=0 / deadzone=21,11 / fast_pskip=1 / chroma_qp_offset=-5 / threads=9 / lookahead_threads=1 / sliced_threads=0 / nr=0 / decimate=1 / interlaced=0 / bluray_compat=0 / constrained_intra=0 / bframes=3 / b_pyramid=2 / b_adapt=2 / b_bias=0 / direct=3 / weightb=1 / open_gop=0 / weightp=2 / keyint=250 / keyint_min=25 / scenecut=40 / intra_refresh=0 / rc_lookahead=60 / rc=2pass / mbtree=1 / bitrate=873 / ratetol=1.0 / qcomp=0.60 / qpmin=0 / qpmax=69 / qpstep=4 / cplxblur=20.0 / qblur=0.5 / ip_ratio=1.40 / aq=1:1.00
Language : Hindi
Default : Yes
Forced : No
Color range : Limited
Color primaries : BT.601 NTSC
Transfer characteristics : BT.470 System B/G
Matrix coefficients : BT.601

Audio
ID : 2
Format : AAC
Format/Info : Advanced Audio Codec
Format profile : LC
Codec ID : A_AAC-2
Duration : 2 h 29 min
Bit rate : 79.9 kb/s
Channel(s) : 2 channels
Channel positions : Front: L R
Sampling rate : 48.0 kHz
Frame rate : 46.875 FPS (1024 SPF)
Compression mode : Lossy
Delay relative to video : 9 ms
Stream size : 85.5 MiB (8%)
Title : LatestHDMovies | TeamSHAHID
Language : Hindi
Default : Yes
Forced : No