HUB Portals

Name Sicario Day of the Soldado (2018) 720p HDCAM-Rip x264 AAC by Full4movies
Size 841.8 MB
Category Movies
Type h.264/x264
Language English
Date Added 1 month ago
Uploaded By shmasti
Downloads 4997
Seeders 6
Leechers 10
Info 4686953DC702230797A88DCC652C443C249FFD0E
Download
Note: Magnet link will launch on download if torrent file is blocked.

Description



General
Complete name : Sicario Day of the Soldado (2018) 720p HDCAM-Rip x264 AAC by Full4movies.mkv
Format : Matroska
Format version : Version 4 / Version 2
File size : 842 MiB
Duration : 1 h 50 min
Overall bit rate : 1 061 kb/s
Encoded date : UTC 2018-06-29 10:44:35
Writing application : mkvmerge v8.1.0 ('Psychedelic Postcard') 32bit
Writing library : libebml v1.3.1 + libmatroska v1.4.2

Video
ID : 1
Format : AVC
Format/Info : Advanced Video Codec
Format profile : [email protected]
Format settings, CABAC : Yes
Format settings, RefFrames : 4 frames
Codec ID : V_MPEG4/ISO/AVC
Duration : 1 h 50 min
Bit rate : 993 kb/s
Width : 1 280 pixels
Height : 532 pixels
Display aspect ratio : 2.40:1
Frame rate mode : Variable
Frame rate : 29.970 FPS
Color space : YUV
Chroma subsampling : 4:2:0
Bit depth : 8 bits
Scan type : Progressive
Bits/(Pixel*Frame) : 0.049
Stream size : 788 MiB (94%)
Writing library : x264 core 155 r2901 7d0ff22
Default : Yes
Forced : No
Color range : Limited
Color primaries : BT.709
Transfer characteristics : BT.709
Matrix coefficients : BT.709

Audio
ID : 2
Format : AAC
Format/Info : Advanced Audio Codec
Format profile : LC
Codec ID : A_AAC
Duration : 1 h 50 min
Bit rate : 64.4 kb/s
Channel(s) : 2 channels
Channel positions : Front: L R
Sampling rate : 48.0 kHz
Frame rate : 46.875 FPS (1024 SPF)
Compression mode : Lossy
Delay relative to video : -21 ms
Stream size : 51.1 MiB (6%)
Language : English
Default : Yes
Forced : No

Screen Shoots