HUB Portals

Name Sanju 2018 Hindi 720p Pre DVDRip x264 AAC { TaRa }.mkv
Size 1.4 GB
Category Movies
Type Bollywood
Language Hindi
Date Added 2 months ago
Uploaded By SkTara
Downloads 252611
Seeders 910
Leechers 69
Info 587E9691F7A23B1EB2107F904584F142D6CB51AD
Download
Note: Magnet link will launch on download if torrent file is blocked.

Description


Sanju 2018 Hindi 720p Pre DVDRip x264 AAC { TaRa }.mkv


===================================================================
General
Complete name : Sanju 2018 Hindi 720p Pre DVDRip x264 AAC { TaRa }.mkv
Format : Matroska
Format version : Version 4 / Version 2
File size : 1.37 GiB
Duration : 2h 28mn
Overall bit rate : 1 317 Kbps
===================================================================
Video
ID : 1
Format : AVC
Format/Info : Advanced Video Codec
Format profile : [email protected]
Format settings, CABAC : Yes
Format settings, ReFrames : 4 frames
Codec ID : V_MPEG4/ISO/AVC
Duration : 2h 28mn
Bit rate : 1 187 Kbps
Width : 1 280 pixels
Height : 544 pixels
Display aspect ratio : 2.35:1
Frame rate mode : Constant
Frame rate : 25.000 fps
Color space : YUV
Chroma subsampling : 4:2:0
Bit depth : 8 bits
Scan type : Progressive
Bits/(Pixel*Frame) : 0.068
Stream size : 1.23 GiB (90%)
Title : ......:::::: TaRa :::::::.....
Language : Hindi
Default : Yes
Forced : No
===================================================================
Audio
ID : 2
Format : AAC
Format/Info : Advanced Audio Codec
Format profile : LC
Codec ID : A_AAC
Duration : 2h 28mn
Bit rate : 128 Kbps
Channel(s) : 2 channels
Channel positions : Front: L R
Sampling rate : 44.1 KHz
Frame rate : 43.066 fps (1024 spf)
Compression mode : Lossy
Stream size : 136 MiB (10%)
Title : ......:::::: TaRa :::::::.....
Language : Hindi
Default : Yes
Forced : No
===================================================================