HUB Portals

Name Survivor.South.Africa.S06E09-720p-CRR
Size 628.3 MB
Category TV
Type HD
Language English
Date Added 4 months ago
Uploaded By CopyRightR
Downloads 1903
Seeders 6
Leechers 1
Info 2201CA5AA28A776F769642FF114F2FDE9EEAB2B0
Download
Note: Magnet link will launch on download if torrent file is blocked.

Description





https://en.wikipedia.org/wiki/Survivor_South_Africa

Survivor South Africa is a South African reality game show based on the popular international Survivor format.

As in all versions of the show, it features group of strangers who are marooned in an isolated location, where they must provide food, water, fire, and shelter for themselves. The contestants will compete in challenges to earn either a reward, or an immunity from elimination. The contestants will be progressively eliminated from the game as they are voted-off by their fellow contestants until only one remains and is given the title "Ultimate Survivor" and be awarded the grand prize of R1 million


***cheers to the original ripper, we are just re-sharing it***


=======================================================================
Other Survivor torrents for you to download

Survivor New Zealand - Season 1 - 720p - magnet:?xt=urn:btih:0F00650873500D02FA4500E38ECCC6FDD47A268B

Australian Survivor (2016) - Season 1 - WEBRip - magnet:?xt=urn:btih:D93ED52ED307113595703AFB85F518587E774C5F

Australian Survivor (2016) - Season 2 - WEBRip/1080p - MEGA PACK - magnet:?xt=urn:btih:8E7077AB2C49656DCC835497B9E669D0CCF26800

Survivor US, All Seasons - https://pirates-forum.org/Thread-Survivor-All-Seasons
=======================================================================



Code:

Format                                   : MPEG-4
Format profile                           : Base Media / Version 2
Codec ID                                 : mp42 (isom/mp42)
File size                                : 614 MiB
Duration                                 : 45 min 49 s
Overall bit rate mode                    : Variable
Overall bit rate                         : 1 875 kb/s
Encoded date                             : UTC 2018-06-28 12:04:00
Tagged date                              : UTC 2018-06-28 12:04:00
gsst                                     : 0
gstd                                     : 2749056

Video
ID                                       : 1
Format                                   : AVC
Format/Info                              : Advanced Video Codec
Format profile                           : [email protected]
Format settings                          : CABAC / 3 Ref Frames
Format settings, CABAC                   : Yes
Format settings, RefFrames               : 3 frames
Codec ID                                 : avc1
Codec ID/Info                            : Advanced Video Coding
Duration                                 : 45 min 49 s
Bit rate                                 : 1 746 kb/s
Width                                    : 1 280 pixels
Height                                   : 720 pixels
Display aspect ratio                     : 16:9
Frame rate mode                          : Constant
Frame rate                               : 25.000 FPS
Color space                              : YUV
Chroma subsampling                       : 4:2:0
Bit depth                                : 8 bits
Scan type                                : Progressive
Bits/(Pixel*Frame)                       : 0.076
Stream size                              : 572 MiB (93%)
Title                                    : ISO Media file produced by Google Inc. Created on: 06/28/2018.
Encoded date                             : UTC 2018-06-28 12:04:00
Tagged date                              : UTC 2018-06-28 12:04:00
Color range                              : Limited
Color primaries                          : BT.709
Transfer characteristics                 : BT.709
Matrix coefficients                      : BT.709

Audio
ID                                       : 2
Format                                   : AAC
Format/Info                              : Advanced Audio Codec
Format profile                           : LC
Codec ID                                 : mp4a-40-2
Duration                                 : 45 min 49 s
Bit rate mode                            : Variable
Bit rate                                 : 126 kb/s
Channel(s)                               : 2 channels
Channel positions                        : Front: L R
Sampling rate                            : 44.1 kHz
Frame rate                               : 43.066 FPS (1024 SPF)
Compression mode                         : Lossy
Stream size                              : 41.2 MiB (7%)
Title                                    : ISO Media file produced by Google Inc. Created on: 06/28/2018.
Language                                 : English
Encoded date                             : UTC 2018-06-28 12:04:00
Tagged date                              : UTC 2018-06-28 12:04:00