HUB Portals

Name The Handmaid's Tale S02E10 (1080p WEBRip x265 HEVC 10bit AAC 2.0 Joy) [UTR]
Size 500.0 MB
Category TV
Type HEVC/x265
Language English
Date Added 2 months ago
Uploaded By UTRCorp
Downloads 747
Seeders 4
Leechers 5
Info F2C753177D3317ED54FC8A106927B052DDEDA794
Download
Note: Magnet link will launch on download if torrent file is blocked.

Description








Media Information

Media Information


Code:

General
Format                                   : Matroska
Format version                           : Version 4 / Version 2
File size                                : 500 MiB
Duration                                 : 55 min 12 s
Overall bit rate                         : 1 266 kb/s
Encoded date                             : UTC 2018-06-21 15:25:55
Writing application                      : mkvmerge v16.0.0 ('Protest') 64-bit
Writing library                          : libebml v1.3.5 + libmatroska v1.4.8
Writing frontend                         : StaxRip v1.7.0.3

Video
ID                                       : 1
Format                                   : HEVC
Format/Info                              : High Efficiency Video Coding
Format profile                           : Main [email protected]@Main
Codec ID                                 : V_MPEGH/ISO/HEVC
Duration                                 : 55 min 9 s
Bit rate                                 : 1 201 kb/s
Width                                    : 1 920 pixels
Height                                   : 960 pixels
Display aspect ratio                     : 2.000
Frame rate mode                          : Constant
Frame rate                               : 24.000 FPS
Color space                              : YUV
Chroma subsampling                       : 4:2:0
Bit depth                                : 10 bits
Bits/(Pixel*Frame)                       : 0.027
Stream size                              : 474 MiB (95%)
Writing library                          : x265 2.7+2-22c127ff05d5:[Windows][MSVC 1900][64 bit] 10bit
Encoding settings                        : cpuid=1173503 / frame-threads=3 / numa-pools=8 / wpp / no-pmode / no-pme / no-psnr / ssim / log-level=2 / input-csp=1 / input-res=1920x960 / interlace=0 / total-frames=79417 / level-idc=0 / high-tier=1 / uhd-bd=0 / ref=4 / no-allow-non-conformance / no-repeat-headers / annexb / no-aud / no-hrd / info / hash=0 / no-temporal-layers / open-gop / min-keyint=24 / keyint=250 / gop-lookahead=0 / bframes=4 / b-adapt=2 / b-pyramid / bframe-bias=0 / rc-lookahead=25 / lookahead-slices=4 / scenecut=40 / radl=0 / no-intra-refresh / ctu=64 / min-cu-size=8 / rect / no-amp / max-tu-size=32 / tu-inter-depth=1 / tu-intra-depth=1 / limit-tu=0 / rdoq-level=2 / dynamic-rd=0.00 / ssim-rd / signhide / no-tskip / nr-intra=0 / nr-inter=0 / no-constrained-intra / strong-intra-smoothing / max-merge=3 / limit-refs=3 / limit-modes / me=3 / subme=3 / merange=57 / temporal-mvp / weightp / weightb / no-analyze-src-pics / deblock=0:0 / sao / sao-non-deblock / rd=6 / no-early-skip / rskip / no-fast-intra / no-tskip-fast / no-cu-lossless / b-intra / no-splitrd-skip / rdpenalty=0 / psy-rd=3.60 / psy-rdoq=1.05 / no-rd-refine / no-lossless / cbqpoffs=0 / crqpoffs=0 / rc=abr / bitrate=1200 / qcomp=0.60 / qpstep=4 / stats-write=0 / stats-read=2 / cplxblur=20.0 / qblur=0.5 / ipratio=1.40 / pbratio=1.30 / aq-mode=3 / aq-strength=1.00 / cutree / zone-count=0 / no-strict-cbr / qg-size=32 / no-rc-grain / qpmax=69 / qpmin=0 / no-const-vbv / sar=0 / overscan=0 / videoformat=5 / range=0 / colorprim=2 / transfer=2 / colormatrix=2 / chromaloc=0 / display-window=0 / max-cll=0,0 / min-luma=0 / max-luma=1023 / log2-max-poc-lsb=8 / vui-timing-info / vui-hrd-info / slices=1 / no-opt-qp-pps / no-opt-ref-list-length-pps / multi-pass-opt-rps / scenecut-bias=0.05 / no-opt-cu-delta-qp / no-aq-motion / no-hdr / no-hdr-opt / no-dhdr10-opt / analysis-reuse-level=5 / scale-factor=0 / refine-intra=0 / refine-inter=0 / refine-mv=0 / limit-sao / ctu-info=0 / no-lowpass-dct / refine-mv-type=0 / copy-pic=1
Default                                  : Yes
Forced                                   : No

Audio
ID                                       : 2
Format                                   : AAC
Format/Info                              : Advanced Audio Codec
Format profile                           : HE-AAC / LC
Codec ID                                 : A_AAC
Duration                                 : 55 min 12 s
Bit rate                                 : 64.0 kb/s
Channel(s)                               : 2 channels
Channel positions                        : Front: L R
Sampling rate                            : 48.0 kHz / 24.0 kHz
Frame rate                               : 23.438 FPS (1024 spf)
Compression mode                         : Lossy
Stream size                              : 25.3 MiB (5%)
Language                                 : English
Default                                  : No
Forced                                   : No

Subtitle #1
ID                                       : 3
Format                                   : UTF-8
Codec ID                                 : S_TEXT/UTF8
Codec ID/Info                            : UTF-8 Plain Text
Duration                                 : 53 min 36 s
Bit rate                                 : 35 b/s
Count of elements                        : 567
Stream size                              : 14.1 KiB (0%)
Language                                 : English
Default                                  : No
Forced                                   : No

Subtitle #2
ID                                       : 4
Format                                   : UTF-8
Codec ID                                 : S_TEXT/UTF8
Codec ID/Info                            : UTF-8 Plain Text
Duration                                 : 53 min 36 s
Bit rate                                 : 36 b/s
Count of elements                        : 567
Stream size                              : 14.5 KiB (0%)
Language                                 : Spanish
Default                                  : No
Forced                                   : No

Menu
00:00:00.000                             : en:Chapter 1
00:08:56.166                             : en:Chapter 2
00:15:30.625                             : en:Chapter 3
00:31:07.791                             : en:Chapter 4
00:36:47.208                             : en:Chapter 5



Source Information


Code:

Release:
The.Handmaid's.Tale.S02E10.The.Last.Ceremony.1080p.HULU.WEB-DL.AAC2.0.H.264-NTb.mkv (1.47 GBs)