HUB Portals

Name Sholay (1975) Hindi 3D SBS 1080p BluRay x264 AAC.-.Link2download
Size 3.8 GB
Category Movies
Type 3D
Language Hindi
Date Added 7 months ago
Uploaded By link2downlod
Downloads 1051
Seeders 1
Leechers 5
Info 357B0AAE2AFB13F87DE3E97CAB4D93B066C4FD68
Download
Note: Magnet link will launch on download if torrent file is blocked.

Description






Format : Matroska
Format version : Version 4 / Version 2
File size : 3.78 GiB
Duration : 3 h 14 min
Overall bit rate : 2 789 kb/s
Movie name : link2download.website.-.Sholay (1975) Hindi 3D SBS 1080p BluRay x264 AAC
Encoded date : UTC 2018-02-07 08:55:42
Writing application : mkvmerge v7.0.0 ('Where We Going') 64bit built on Jun 9 2014 15:16:27
Writing library : libebml v1.3.0 + libmatroska v1.4.1

Video
ID : 1
Format : AVC
Format/Info : Advanced Video Codec
Format profile : [email protected]
Format settings : CABAC / 3 Ref Frames
Format settings, CABAC : Yes
Format settings, ReFrames : 3 frames
Codec ID : V_MPEG4/ISO/AVC
Duration : 3 h 14 min
Bit rate : 2 662 kb/s
Width : 1 920 pixels
Height : 1 080 pixels
Display aspect ratio : 16:9
Frame rate mode : Constant
Frame rate : 25.000 FPS
Color space : YUV
Chroma subsampling : 4:2:0
Bit depth : 8 bits
Scan type : Progressive
Bits/(Pixel*Frame) : 0.051
Stream size : 3.61 GiB (95%)
Default : Yes
Forced : No
Color range : Limited
Color primaries : BT.709
Transfer characteristics : BT.709
Matrix coefficients : BT.709

Audio
ID : 2
Format : AAC
Format/Info : Advanced Audio Codec
Format profile : LC
Codec ID : A_AAC-2
Duration : 3 h 14 min
Bit rate : 126 kb/s
Channel(s) : 2 channels
Channel positions : Front: L R
Sampling rate : 44.1 kHz
Frame rate : 43.066 FPS (1024 SPF)
Compression mode : Lossy
Stream size : 174 MiB (5%)
Default : Yes
Forced : No