HUB Portals

Name Tomb Raider (2018).720p.H264.italian.english.Ac3-5.1.sub.NUita.eng.MIRCrew
Size 2.3 GB
Category Movies
Type HD
Language English
Date Added 3 months ago
Uploaded By robbyrs
Downloads 31588
Seeders 150
Leechers 16
Info 137B74BDFF63B77DB69B571ABB25DFEF041622E4
Download
Note: Magnet link will launch on download if torrent file is blocked.

Description

Tomb Raider (2018).720p.H264.italian.english.Ac3-5.1.sub.NUita.eng.MIRCrew


NO FOUND ONLY ORIGINAL RELEASE



My release is always in double track audio italian and Original audio
for select it use VLC or dvd player home
not use wmp

Tomb Raider (2018)

Quality MIRCrew on HD 720p da 2,3 gb







Paese di produzione Stati Uniti d'America, Regno Unito
Anno 2018
Durata 118 min
Rapporto 2,35 : 1
Genere azione, avventura
Regia Roar Uthaug



Alicia Vikander: Lara Croft
Dominic West: Lord Richard Croft
Walton Goggins: padre Mathias Vogel
Daniel Wu: Lu Ren
Kristin Scott Thomas: Ana Miller
Hannah John-Kamen: Sophie
Antonio Aakeel: Nitin
Nick Frost: Max
Emily Carey: Lara Croft a 14 anni
Maisy De Freitas: Lara Croft bambina
Derek Jacobi: mr. Yaffe
Duncan Airlie James: Terry



Lara Croft è una ragazza indipendente e sicura di sé, orfana del padre scomparso anni prima. Lara è destinata ad ereditare una holding multinazionale, ma si rifiuta di prenderne possesso, ritenendo suo padre ancora vivo. La tutrice Ana e il notaio le consegnano un rompicapo che contiene al suo interno una chiave.



Lara Croft, the fiercely independent daughter of a missing adventurer, must push herself beyond her limits when she discovers the island where her father disappeared.











[spoiler]
General
Unique ID : 237377892583409585779256365227024379257 (0xB29551B3909B8BD49AA09AC47B78ED79)
Complete name : Tomb Raider (2018).720p.h264.ita.eng.sub.NUita.eng-MIRCrew\Tomb Raider (2018).720p.h264.ita.eng.sub.NUita.eng-MIRCrew.mkv
Format : Matroska
Format version : Version 2
File size : 2.29 GiB
Duration : 1h 57mn
Overall bit rate : 2 780 Kbps
Movie name : MIRCrew
Encoded date : UTC 2018-06-14 18:39:36
Writing application : mkvmerge v5.4.0 ('Piper') built on Mar 10 2012 13:34:39
Writing library : Lavf54.63.100

Video
ID : 1
Format : AVC
Format/Info : Advanced Video Codec
Format profile : [email protected]
Format settings, CABAC : Yes
Format settings, ReFrames : 2 frames
Codec ID : V_MPEG4/ISO/AVC
Duration : 1h 57mn
Bit rate : 1 900 Kbps
Width : 1 264 pixels
Height : 528 pixels
Display aspect ratio : 2.40:1
Frame rate mode : Variable
Frame rate : 23.976 fps
Color space : YUV
Chroma subsampling : 4:2:0
Bit depth : 8 bits
Scan type : Progressive
Bits/(Pixel*Frame) : 0.119
Stream size : 1.50 GiB (66%)
Writing library : x264 core 130 r2273
Encoding settings : cabac=1 / ref=2 / deblock=1:0:0 / analyse=0x1:0x131 / me=hex / subme=7 / psy=1 / psy_rd=1.00:0.00 / mixed_ref=0 / me_range=16 / chroma_me=1 / trellis=1 / 8x8dct=0 / cqm=0 / deadzone=21,11 / fast_pskip=1 / chroma_qp_offset=-2 / threads=3 / lookahead_threads=1 / sliced_threads=0 / nr=0 / decimate=1 / interlaced=0 / bluray_compat=0 / constrained_intra=0 / bframes=3 / b_pyramid=0 / b_adapt=1 / b_bias=0 / direct=3 / weightb=1 / open_gop=0 / weightp=2 / keyint=230 / keyint_min=23 / scenecut=40 / intra_refresh=0 / rc_lookahead=40 / rc=abr / mbtree=1 / bitrate=1900 / ratetol=1.0 / qcomp=0.60 / qpmin=10 / qpmax=69 / qpstep=4 / vbv_maxrate=24000 / vbv_bufsize=24000 / nal_hrd=none / ip_ratio=1.40 / aq=1:1.00
Language : Italian
Default : Yes
Forced : No
DURATION : 01:57:50.355000000
NUMBER_OF_FRAMES : 169519
NUMBER_OF_BYTES : 7807655092
_STATISTICS_WRITING_APP : mkvmerge v9.7.1 ('Pandemonium') 64bit
_STATISTICS_WRITING_DATE_UTC : 2018-06-13 18:40:31
_STATISTICS_TAGS : BPS DURATION NUMBER_OF_FRAMES NUMBER_OF_BYTES

Audio #1
ID : 2
Format : AC-3
Format/Info : Audio Coding 3
Mode extension : CM (complete main)
Codec ID : A_AC3
Duration : 1h 57mn
Bit rate mode : Constant
Bit rate : 448 Kbps
Channel(s) : 6 channels
Channel positions : Front: L C R, Side: L R, LFE
Sampling rate : 48.0 KHz
Bit depth : 16 bits
Compression mode : Lossy
Delay relative to video : -5ms
Stream size : 378 MiB (16%)
Title : ita Ac3 5.1
Language : Italian
Default : No
Forced : No
DURATION : 01:57:49.408000000
NUMBER_OF_FRAMES : 220919
NUMBER_OF_BYTES : 565552640
_STATISTICS_WRITING_APP : mkvmerge v9.7.1 ('Pandemonium') 64bit
_STATISTICS_WRITING_DATE_UTC : 2018-06-13 18:40:31
_STATISTICS_TAGS : BPS DURATION NUMBER_OF_FRAMES NUMBER_OF_BYTES

Audio #2
ID : 3
Format : AC-3
Format/Info : Audio Coding 3
Mode extension : CM (complete main)
Codec ID : A_AC3
Duration : 1h 57mn
Bit rate mode : Constant
Bit rate : 448 Kbps
Channel(s) : 6 channels
Channel positions : Front: L C R, Side: L R, LFE
Sampling rate : 48.0 KHz
Bit depth : 16 bits
Compression mode : Lossy
Delay relative to video : -5ms
Stream size : 378 MiB (16%)
Title : eng Ac3 5.1
Language : English
Default : No
Forced : No
DURATION : 01:57:50.443000000
NUMBER_OF_FRAMES : 662854
NUMBER_OF_BYTES : 1333662988
_STATISTICS_WRITING_APP : mkvmerge v9.7.1 ('Pandemonium') 64bit
_STATISTICS_WRITING_DATE_UTC : 2018-06-13 18:40:31
_STATISTICS_TAGS : BPS DURATION NUMBER_OF_FRAMES NUMBER_OF_BYTES

Menu
00:00:00.000 : :(01)00:00:00:000
00:13:13.250 : :(02)00:13:13:250
00:24:04.234 : :(03)00:24:04:234
00:31:57.999 : :(04)00:31:57:999
00:39:57.061 : :(05)00:39:57:061
00:50:31.069 : :(06)00:50:31:069
01:04:49.844 : :(07)01:04:49:844
01:13:58.100 : :(08)01:13:58:100
01:20:17.395 : :(09)01:20:17:395
01:27:41.130 : :(10)01:27:41:130
01:38:41.624 : :(11)01:38:41:624
01:51:17.420 : :(12)01:51:17:420
01:57:50.188 : :(13)01:57:50:188



[/spoiler]