HUB Portals

Name Trumping Democracy(2017)Mp-4 Dvd Rip[DaScubaDude]
Size 653.6 MB
Category Documentaries
Type Documentary
Language English
Date Added 3 months ago
Uploaded By dascubadude
Downloads 141
Seeders 3
Leechers 0
Info 2D7AED7A4B80525A7C814A17338D1E5589D1ECEB
Download
Note: Magnet link will launch on download if torrent file is blocked.

Description


[youtube]WUAW-nm8L0A[/youtube]
IMDb Info for this film
General
Complete name : Trumping Democracy\TRUMPING_DEMOCRACY_Title9.mp4
Format : MPEG-4
Format profile : Base Media
Codec ID : isom (isom/iso2/avc1/mp41)
File size : 650 MiB
Duration : 1 h 8 min
Overall bit rate : 1 318 kb/s
Movie name : TRUMPING_DEMOCRACY
Writing application : Lavf54.6.100

Video
ID : 1
Format : AVC
Format/Info : Advanced Video Codec
Format profile : [email protected]
Format settings : 6 Ref Frames
Format settings, CABAC : No
Format settings, RefFrames : 6 frames
Codec ID : avc1
Codec ID/Info : Advanced Video Coding
Duration : 1 h 8 min
Bit rate : 1 183 kb/s
Width : 720 pixels
Height : 404 pixels
Display aspect ratio : 16:9
Frame rate mode : Constant
Frame rate : 29.970 (30000/1001) FPS
Color space : YUV
Chroma subsampling : 4:2:0
Bit depth : 8 bits
Scan type : Progressive
Bits/(Pixel*Frame) : 0.136
Stream size : 583 MiB (90%)

Audio
ID : 2
Format : AAC
Format/Info : Advanced Audio Codec
Format profile : LC
Codec ID : mp4a-40-2
Duration : 1 h 8 min
Bit rate mode : Constant
Bit rate : 128 kb/s
Channel(s) : 2 channels
Channel positions : Front: L R
Sampling rate : 44.1 kHz
Frame rate : 43.066 FPS (1024 SPF)
Compression mode : Lossy
Stream size : 63.1 MiB (10%)
Default : Yes
Alternate group : 1