HUB Portals

Name The Extraordinary Voyage (2011) 1080p Bluray BDrip x265 HEVC AAC 5.1 D0ct0rLew[U...
Size 5.6 GB
Category Movies
Type HEVC/x265
Language English
Date Added 7 months ago
Uploaded By D0ct0rLew
Downloads 127
Seeders 2
Leechers 1
Info 4C01251A5D5C2D10E53ECEC1AB42A7E2456A2150
Download
Note: Magnet link will launch on download if torrent file is blocked.

Description



Screenshots


Code:

Source
Encode

Media Information


[code]General
Unique ID : 238708588346498173144070222001110059565 (0xB3959A11648CE1EBBC62C57713F50A2D)
Complete name : The Extraordinary Voyage (2011) 1080p Bluray BDrip x265 HEVC AAC 5.1 D0ct0rLew[UTR-HD].mkv
Format : Matroska
Format version : Version 4 / Version 2
File size : 5.57 GiB
Duration : 1 h 6 min
Overall bit rate : 12.0 Mb/s
Encoded date : UTC 2017-12-19 02:47:57
Writing application : mkvmerge v12.0.0 ('Trust / Lust') 64bit
Writing library : libebml v1.3.4 + libmatroska v1.4.5

Video
ID : 1
Format : HEVC
Format/Info : High Efficiency Video Coding
Format profile : Main [email protected]@Main
Codec ID : V_MPEGH/ISO/HEVC
Duration : 1 h 6 min
Bit rate : 11.5 Mb/s
Width : 1 920 pixels
Height : 1 080 pixels
Display aspect ratio : 16:9
Frame rate mode : Constant
Frame rate : 23.976 (24000/1001) FPS
Color space : YUV
Chroma subsampling : 4:2:0
Bit depth : 10 bits
Bits/(Pixel*Frame) : 0.230
Stream size : 5.30 GiB (95%)
Writing library : x265 2.5+27-0e168bdeb48b:[Windows][MSVC 1911][64 bit] 10bit
Encoding settings : cpuid=1050111 / frame-threads=3 / numa-pools=8 / wpp / no-pmode / no-pme / no-psnr / no-ssim / log-level=2 / input-csp=1 / input-res=1920x1080 / interlace=0 / total-frames=95266 / level-idc=0 / high-tier=1 / uhd-bd=0 / ref=4 / no-allow-non-conformance / no-repeat-headers / annexb / no-aud / no-hrd / info / hash=0 / no-temporal-layers / open-gop / min-keyint=23 / keyint=250 / bframes=8 / b-adapt=2 / b-pyramid / bframe-bias=0 / rc-lookahead=90 / lookahead-slices=4 / scenecut=40 / no-intra-refresh / ctu=64 / min-cu-size=8 / rect / amp / max-tu-size=32 / tu-inter-depth=2 / tu-intra-depth=2 / limit-tu=4 / rdoq-level=2 / dynamic-rd=0.00 / no-ssim-rd / signhide / no-tskip / nr-intra=0 / nr-inter=0 / no-constrained-intra / no-strong-intra-smoothing / max-merge=3 / limit-refs=2 / limit-modes / me=3 / subme=3 / merange=57 / temporal-mvp / weightp / weightb / no-analyze-src-pics / deblock=3:3 / no-sao / no-sao-non-deblock / rd=6 / no-early-skip / no-rskip / no-fast-intra / no-tskip-fast / no-cu-lossless / b-intra / no-splitrd-skip / rdpenalty=0 / psy-rd=1.30 / psy-rdoq=1.00 / no-rd-refine / analysis-reuse-mode=0 / no-lossless / cbqpoffs=0 / crqpoffs=0 / rc=crf / crf=19.0 / qcomp=0.60 / qpstep=4 / stats-write=0 / stats-read=0 / ipratio=1.40 / pbratio=1.30 / aq-mode=2 / aq-strength=0.80 / cutree / zone-count=0 / no-strict-cbr / qg-size=32 / no-rc-grain / qpmax=69 / qpmin=0 / no-const-vbv / sar=0 / overscan=0 / videoformat=5 / range=0 / colorprim=2 / transfer=2 / colormatrix=2 / chromaloc=0 / display-window=0 / max-cll=0,0 / min-luma=0 / max-luma=1023 / log2-max-poc-lsb=8 / vui-timing-info / vui-hrd-info / slices=1 / opt-qp-pps / opt-ref-list-length-pps / no-multi-pass-opt-rps / scenecut-bias=0.05 / no-opt-cu-delta-qp / aq-motion / no-hdr / no-hdr-opt / no-dhdr10-opt / analysis-reuse-level=5 / scale-factor=0 / refine-intra=0 / refine-inter=0 / refine-mv=0 / no-limit-sao / ctu-info=0
Default : Yes
Forced : No

Audio
ID : 2
Format : AAC
Format/Info : Advanced Audio Codec
Format profile : LC
Codec ID : A_AAC-2
Duration : 1 h 6 min
Bit rate : 576 kb/s
Channel(s) : 6 channels
Channel positions : Front: L C R, Side: L R, LFE
Sampling rate : 48.0 kHz
Frame rate : 46.875 FPS (1024 SPF)
Compression mode : Lossy
Delay relative to video : 9 ms
Stream size : 273 MiB (5%)
Default : Yes
Forced : No

Menu
00:00:00.000 : en:Chapter 1
00:04:37.402 : en:Chapter 2
00:11:04.664 : en:Chapter 3
00:14:46.636 : en:Chapter 4
00:21:09.727 : en:Chapter 5
00:24:41.605 : en:Chapter 6
00:31:24.925 : en:Chapter 7
00:37:03.263 : en:Chapter 8
00:43:00.453 : en:Chapter 9
00:47:22.256 : en:Chapter 10
00:52:06.290 : en:Chapter 11
00:55:23.028 : en:Chapter 12
01:01:14.838 : en:Chapter 13
01:04:41.252 : en:Chapter 14



Source Information


Code:

General
Unique ID : 178599539957658311415016086257902894848 (0x865D052C3578BE938EAF172D718D3F00)
Complete name : The.Extraordinary.Voyage.2011.1080p.BluRay.REMUX.AVC.DTS-HD.MA.5.1-EPSiLON.mkv
Format : Matroska
Format version : Version 4 / Version 2
File size : 9.25 GiB
Duration : 1 h 6 min
Overall bit rate mode : Variable
Overall bit rate : 20.0 Mb/s
Encoded date : UTC 2017-11-20 13:40:47
Writing application : mkvmerge v18.0.0 ('Apricity') 64-bit
Writing library : libebml v1.3.5 + libmatroska v1.4.8

Video
ID : 1
Format : AVC
Format/Info : Advanced Video Codec
Format profile : [email protected]
Format settings : CABAC / 4 Ref Frames
Format settings, CABAC : Yes
Format settings, RefFrames : 4 frames
Codec ID : V_MPEG4/ISO/AVC
Duration : 1 h 6 min
Bit rate mode : Variable
Bit rate : 17.9 Mb/s
Maximum bit rate : 35.0 Mb/s
Width : 1 920 pixels
Height : 1 080 pixels
Display aspect ratio : 16:9
Frame rate mode : Constant
Frame rate : 23.976 (24000/1001) FPS
Color space : YUV
Chroma subsampling : 4:2:0
Bit depth : 8 bits
Scan type : Progressive
Bits/(Pixel*Frame) : 0.360
Stream size : 8.29 GiB (90%)
Title : MPEG-4 AVC Video / 17995 kbps / 1080p / 23,976 fps / 16:9 / High Profile 4.1
Language : English
Default : Yes
Forced : No
Color range : Limited
Color primaries : BT.709
Transfer characteristics : BT.709
Matrix coefficients : BT.709

Audio
ID : 2
Format : DTS
Format/Info : Digital Theater Systems
Format profile : MA / Core
Codec ID : A_DTS
Duration : 1 h 6 min
Bit rate mode : Variable / Constant
Bit rate : 2 048 kb/s / 1 509 kb/s
Channel(s) : 6 channels
Channel positions : Front: L C R, Side: L R, LFE
Sampling rate : 48.0 kHz
Frame rate : 93.750 FPS (512 SPF)
Bit depth : 16 bits
Compression mode : Lossless / Lossy
Stream size : 978 MiB (10%)
Title : DTS-HD Master Audio / 5.1 / 48 kHz / 2064 kbps / 16-bit
Language : English
Default : Yes
Forced : No

Menu
00:00:00.000 : en:Chapter 1
00:04:37.402 : en:Chapter 2
00:11:04.664 : en:Chapter 3
00:14:46.636 : en:Chapter 4
00:21:09.727 : en:Chapter 5
00:24:41.605 : en:Chapter 6
00:31:24.925 : en:Chapter 7
00:37:03.263 : en:Chapter 8
00:43:00.453 : en:Chapter 9
00:47:22.256 : en:Chapter 10
00:52:06.290 : en:Chapter 11
00:55:23.028 : en:Chapter 12
01:01:14.838 : en:Chapter 13
01:04:41.252 : en:Chapter 14


UniTeam Branding and Imagery©
No part of this release may be reproduced, distributed, de-tagged or dumped in any form or by any means, without prior consents and permissions of the UniTeam Representative. For distribution requestings, message the uploader or any other UniTeam Representative. Once and only once the permission has been granted, the individual(s) may publish to the desired location without any alterations whatsoever, retaining complete filenames, UTR tags, logos, imagery and all credits due.

[/code]