HUB Portals

Name War Machine (2017) 720p.x264 Dual audio (English +Hindi)-8a8a
Size 1.1 GB
Category Movies
Type Dubs/Dual
Language English
Date Added 9 months ago
Uploaded By 8a8a
Downloads 625
Seeders 2
Leechers 2
Info BD143582ECC255ACF222BDCBFBCA372095CC677A
Download
Note: Magnet link will launch on download if torrent file is blocked.

Description

A successful, charismatic four-star general, Glenn McMahon, leaps in like a rock star to command NATO forces in Afghanistan, only to be taken down by a journalist's no-holds-barred exposé.

           IMDB 6.1
[code]
     Format : Matroska
     Format version : Version 4 / Version 2
     File size : 1.09 GiB
     Duration : 2 h 2 min
     Overall bit rate : 1 278 kb/s
     Movie name : Worldfree4u.es
     Encoded date : UTC 2017-09-24 17:47:56
     Writing application : mkvmerge v8.2.0 ('World of Adventure') 32bit
     Writing library : libebml v1.3.1 + libmatroska v1.4.2
  Video #1
     ID : 1
     Format : AVC
     Format/Info : Advanced Video Codec
     Format profile : [email protected]
     Format settings, CABAC : Yes
     Format settings, ReFrames : 4 frames
     Codec ID : V_MPEG4/ISO/AVC
     Duration : 2 h 2 min
     Bit rate : 925 kb/s
     Width : 1 280 pixels
     Height : 544 pixels
     Display aspect ratio : 2.35:1
     Frame rate mode : Constant
     Frame rate : 24.000 FPS
     Color space : YUV
     Chroma subsampling : 4:2:0
     Bit depth : 8 bits
     Scan type : Progressive
     Bits/(Pixel*Frame) : 0.055
     Stream size : 811 MiB (72%)
     Title : Worldfree4u.es
     Writing library : x264 core 142 r2431 ac76440
     
     Language : English
     Default : Yes
     Forced : No
  Audio #2
     ID : 2
     Format : AC-3
     Format/Info : Audio Coding 3
     Mode extension : CM (complete main)
     Format settings, Endianness : Big
     Codec ID : A_AC3
     Duration : 2 h 1 min
     Bit rate mode : Constant
     Bit rate : 128 kb/s
     Channel(s) : 2 channels
     Channel positions : Front: L R
     Sampling rate : 48.0 kHz
     Frame rate : 31.250 FPS (1536 spf)
     Compression mode : Lossy
     Stream size : 111 MiB (10%)
     Title : Worldfree4u.es
     Language : Hindi
     Default : Yes
     Forced : No
  Audio #3
     ID : 3
     Format : AC-3
     Format/Info : Audio Coding 3
     Mode extension : CM (complete main)
     Format settings, Endianness : Big
     Codec ID : A_AC3
     Duration : 2 h 2 min
     Bit rate mode : Constant
     Bit rate : 224 kb/s
     Channel(s) : 6 channels
     Channel positions : Front: L C R, Side: L R, LFE
     Sampling rate : 48.0 kHz
     Frame rate : 31.250 FPS (1536 spf)
     Compression mode : Lossy
     Stream size : 196 MiB (18%)
     Title : Worldfree4u.es
     Language : English
     Default : No
     Forced : No
  Text #4
     ID : 4
     Format : UTF-8
     Codec ID : S_TEXT/UTF8
     Codec ID/Info : UTF-8 Plain Text
     Duration : 1 h 54 min
     Bit rate : 88 b/s
     Count of elements : 1801
     Stream size : 73.6 KiB (0%)
     Title : Worldfree4u.es
     Language : English
     Default : Yes


Quote:

Hindusthan Zindabad