HUB Portals

Name Ek Aur Jaanbaaz Khiladi (Villu) 2017 720p Webrip Hindi Dubbed [CraZzy Boy]
Size 1.7 GB
Category Movies
Type Dubs/Dual
Language English
Date Added 9 months ago
Uploaded By CrazzyBoy
Downloads 0
Seeders 1
Leechers 0
Info E9E6BFA62DBCF13C82E72A77AAE73C0AD0AA01EF
Download
Note: Magnet link will launch on download if torrent file is blocked.

Description

Quote:

Ek Aur Jaanbaaz Khiladi (Villu) 2017 720p Webrip Hindi Dubbed [CraZzy Boy]


Like Us On Facebook

Visit & Support www.MoviezAddiction.Co.In





Quote:



General
Unique ID                   : 183995342940649409063388969866420324862 (0x8A6C36CC9E26C649928F46AFC48C89FE)
Complete name               : A:\Crazzy Boy\Torrents\[www.MoviezAddiction.Co.InEk Aur Jaanbaaz Khiladi (Villu) 2017 720p Webrip Hindi Dubbed [CraZzy Boy]\[www.MoviezAddiction.Co.InEk Aur Jaanbaaz Khiladi (Villu) 2017 720p Webrip Hindi Dubbed [CraZzy Boy].mkv
Format                      : Matroska
Format version              : Version 4 / Version 2
File size                   : 1.69 GiB
Duration                    : 2 h 22 min
Overall bit rate            : 1 704 kb/s
Movie name                  : Visit & Support www.MoviezAddiction.Co.in
Encoded date                : UTC 2017-12-21 18:34:07
Writing application         : mkvmerge v7.9.0 ('Birds') 64bit
Writing library             : libebml v1.3.1 + libmatroska v1.4.2

Video
ID                          : 1
Format                      : AVC
Format/Info                 : Advanced Video Codec
Format profile              : [email protected]
Format settings, CABAC      : Yes
Format settings, ReFrames   : 3 frames
Codec ID                    : V_MPEG4/ISO/AVC
Duration                    : 2 h 22 min
Bit rate                    : 1 576 kb/s
Width                       : 1 280 pixels
Height                      : 720 pixels
Display aspect ratio        : 16:9
Frame rate mode             : Constant
Frame rate                  : 25.000 FPS
Color space                 : YUV
Chroma subsampling          : 4:2:0
Bit depth                   : 8 bits
Scan type                   : Progressive
Bits/(Pixel*Frame)          : 0.068
Stream size                 : 1.56 GiB (93%)
Title                       : Visit & Support www.MoviezAddiction.Co.in
Default                     : Yes
Forced                      : No
Color range                 : Limited
Color primaries             : BT.709
Transfer characteristics    : BT.709
Matrix coefficients         : BT.709

Audio
ID                          : 2
Format                      : AAC
Format/Info                 : Advanced Audio Codec
Format profile              : LC
Codec ID                    : A_AAC
Duration                    : 2 h 22 min
Bit rate                    : 126 kb/s
Channel(s)                  : 2 channels
Channel positions           : Front: L R
Sampling rate               : 44.1 kHz
Frame rate                  : 43.066 FPS (1024 spf)
Compression mode            : Lossy
Stream size                 : 128 MiB (7%)
Title                       : Visit & Support www.MoviezAddiction.Co.in
Default                     : Yes
Forced               ��      : No