HUB Portals

Name John.Wick.(2014).BDRip.1080p.x26​​4.Org.BD.6Ch.{HINDI}-Maverick.[Exculsive]
Size 1.9 GB
Category Movies
Type Dubs/Dual
Language Hindi
Date Added 7 months ago
Uploaded By xMaverickx
Downloads 0
Seeders 1
Leechers 2
Info CE9CD76163A8A7105D45687F8C36BC78526705AF
Download
Note: Magnet link will launch on download if torrent file is blocked.

Description

Code:

RELEASE INFO:

John.Wick.(2014).BDRip.1080p.x26​​4.Org.BD.6Ch.{HINDI}-Maverick.[Exculsive]






Storyline:
An ex-hitman comes out of retirement to track down the gangsters that took everything from him.

General
Unique ID                   : 247100545634182724588037623742375107747 (0xB9E5D581C0DEA26BB6D892A783939CA3)
Complete name               John.Wick.(2014).BDRip.1080p.x26​​4.Org.BD.6Ch.{HINDI}-Maverick.mkv
Format                      : Matroska
Format version              : Version 4 / Version 2
File size                   : 1.90 GiB
Duration                    : 1h 41mn
Overall bit rate            : 2 690 Kbps
Movie name                  : John.Wick.(2014).BDRip.1080p.x26​​4.Org.BD.6Ch.{HINDI}-Maverick
Encoded date                : UTC 2017-12-21 14:10:17
Writing application         : mkvmerge v8.6.1 ('Flying') 32bit
Writing library             : libebml v1.3.3 + libmatroska v1.4.4

Video
ID                          : 1
Format                      : AVC
Format/Info                 : Advanced Video Codec
Format profile              : [email protected]
Format settings, CABAC      : Yes
Format settings, ReFrames   : 4 frames
Codec ID                    : V_MPEG4/ISO/AVC
Duration                    : 1h 41mn
Bit rate                    : 2 050 Kbps
Width                       : 1 920 pixels
Height                      : 800 pixels
Display aspect ratio        : 16:9
Original display aspect rat : 2.40:1
Frame rate mode             : Constant
Frame rate                  : 23.976 (24000/1001) fps
Color space                 : YUV
Chroma subsampling          : 4:2:0
Bit depth                   : 8 bits
Scan type                   : Progressive
Bits/(Pixel*Frame)          : 0.056
Stream size                 : 1.45 GiB (76%)
Title                       : John.Wick.(2014).BDRip.1080p.x26​​4.Org.BD.6Ch.{HINDI}-Maverick
Writing library             : x264 core 148
Encoding settings           : cabac=1 / ref=4 / deblock=1:-1:-1 / analyse=0x3:0x133 / me=umh / subme=9 / psy=1 / psy_rd=1.00:0.15 / mixed_ref=1 / me_range=24 / chroma_me=1 / trellis=2 / 8x8dct=1 / cqm=0 / deadzone=21,11 / fast_pskip=0 / chroma_qp_offset=-3 / threads=12 / lookahead_threads=1 / sliced_threads=0 / nr=0 / decimate=1 / interlaced=0 / bluray_compat=0 / constrained_intra=0 / bframes=3 / b_pyramid=2 / b_adapt=2 / b_bias=0 / direct=3 / weightb=1 / open_gop=0 / weightp=2 / keyint=250 / keyint_min=23 / scenecut=40 / intra_refresh=0 / rc_lookahead=60 / rc=2pass / mbtree=1 / bitrate=2050 / ratetol=1.0 / qcomp=0.60 / qpmin=0 / qpmax=69 / qpstep=4 / cplxblur=20.0 / qblur=0.5 / vbv_maxrate=31250 / vbv_bufsize=31250 / nal_hrd=none / filler=0 / ip_ratio=1.40 / aq=1:1.00
Language                    : Hindi
Default                     : Yes
Forced                      : No

Audio
ID                          : 2
Format                      : AC-3
Format/Info                 : Audio Coding 3
Mode extension              : CM (complete main)
Format settings, Endianness : Big
Codec ID                    : A_AC3
Duration                    : 1h 41mn
Bit rate mode               : Constant
Bit rate                    : 640 Kbps
Channel(s)                  : 6 channels
Channel positions           : Front: L C R, Side: L R, LFE
Sampling rate               : 48.0 KHz
Frame rate                  : 31.250 fps (1536 spf)
Compression mode            : Lossy
Delay relative to video     : -43ms
Stream size                 : 463 MiB (24%)
Title                       : Maverick
Language                    : Hindi
Default                     : Yes
Forced                      : No








Hindi Audio Source Original BD.......Thanks TITAN


Note: No Watermarks/Tags in Audio & Video ;).... Enjoy Movie:)


**Please Seed After Download**