HUB Portals

Name The Mask of Zorro (1998) 1080p BluRay x264 Dual Audio [Hindi + Eng] DD 5.0 - Esu...
Size 3.2 GB
Category Movies
Type Dubs/Dual
Language Hindi
Date Added 5 months ago
Uploaded By TheFighter
Downloads 1
Seeders 1
Leechers 0
Info 391C0C28431B5E7366F50A164D97F5C7354437A7
Download
Note: Magnet link will launch on download if torrent file is blocked.

Description



The Mask of Zorro (1998) 1080p BluRay x264 Dual Audio [Hindi + Eng] DD 5.0 - Esub ~ Ranvijay

Thanks To Mr Rajput For Hindi Audio



Format                                   : Matroska
Format version                           : Version 4 / Version 2
File size                                : 3.17 GiB
Duration                                 : 2 h 17 min
Overall bit rate                         : 3 297 kb/s
Movie name                               : The Mask of Zorro (1998) 1080p BluRay x264 Dual Audio [Hindi + Eng] DD 5.0 - Esub ~ Ranvijay

Video
ID                                       : 1
Format                                   : AVC
Duration                                 : 2 h 17 min
Bit rate                                 : 2 400 kb/s
Width                                    : 1 920 pixels
Height                                   : 800 pixels
Display aspect ratio                     : 2.40:1
Frame rate mode                          : Constant
Frame rate                               : 23.976 (24000/1001) FPS
Stream size                              : 2.31 GiB (73%)
Title                                    : ~Ranvijay~
Language                                 : English
Default                                  : Yes
Forced                                   : No

Audio #1
ID                                       : 2
Format                                   : AC-3
Format/Info                              : Audio Coding 3
Codec ID                                 : A_AC3
Duration                                 : 2 h 17 min
Bit rate mode                            : Constant
Bit rate                                 : 448 kb/s
Channel(s)                               : 6 channels
Channel positions                        : Front: L C R, Side: L R, LFE
Sampling rate                            : 48.0 kHz
Frame rate                               : 31.250 FPS (1536 SPF)
Bit depth                                : 16 bits
Compression mode                         : Lossy
Delay relative to video                  : -83 ms
Stream size                              : 441 MiB (14%)
Title                                    : ~Ranvijay~
Language                                 : Hindi
Service kind                             : Complete Main
Default                                  : Yes
Forced                                   : No

Audio #2
ID                                       : 3
Format                                   : AC-3
Format/Info                              : Audio Coding 3
Codec ID                                 : A_AC3
Duration                                 : 2 h 17 min
Bit rate mode                            : Constant
Bit rate                                 : 448 kb/s
Channel(s)                               : 6 channels
Channel positions                        : Front: L C R, Side: L R, LFE
Sampling rate                            : 48.0 kHz
Frame rate                               : 31.250 FPS (1536 SPF)
Bit depth                                : 16 bits
Compression mode                         : Lossy
Stream size                              : 441 MiB (14%)
Title                                    : ~Ranvijay~
Language                                 : English
Service kind                             : Complete Main
Default                                  : No
Forced                                   : No

Text
ID                                       : 4
Format                                   : UTF-8
Codec ID                                 : S_TEXT/UTF8
Codec ID/Info                            : UTF-8 Plain Text
Duration                                 : 2 h 8 min
Bit rate                                 : 33 b/s
Count of elements                        : 840
Stream size                              : 31.2 KiB (0%)
Title                                    : ~Ranvijay~
Language                                 : English
Default                                  : Yes
Forced                                   : No

Menu
00:00:00.000                             : en:Start
00:09:54.510                             : en:Zorro's Last Ride
00:14:04.927                             : en:De La Vega Family
00:27:01.328                             : en:Losing Everything
00:32:54.973                             : en:The Murrieta Brothers
00:37:09.477                             : en:Prison Break
00:42:50.276                             : en:Elena
00:51:59.407                             : en:Master Meets Pupil
01:02:14.105                             : en:Lair of the Fox
01:09:07.017                             : en:The Training Circle
01:15:41.995                             : en:A Black Stallion
01:31:10.840                             : en:Horse Thief
01:41:01.221                             : en:Barracks Battle
01:46:27.172                             : en:Sanctuary
01:52:13.226                             : en:Don Alejandro
02:04:21.162                             : en:Dancing with Elena