HUB Portals

Name [REUP] Alien 1979 DC (1080p Bluray x265 HEVC 10bit AAC 5.1 Tigole) [UTR]
Size 2.4 GB
Category Movies
Type HEVC/x265
Language English
Date Added 7 months ago
Uploaded By UTRplus
Downloads 2619
Seeders 5
Leechers 2
Info D9C5121DFB34B19AA79564251566E0B18F46CCA8
Download
Note: Magnet link will launch on download if torrent file is blocked.

Description



Alien 1979 Director's Cut in 1080p, encoded with x265 in HEVC and AAC 5.1 English, with subtitles!
Encoded using the time consuming 2 pass, 10 bit color at 2500 kbps, from a Blu-ray source, for the highest quality possible.



Media Information

Code:

General
Format : Matroska
Format version : Version 4 / Version 2
File size : 2.37 GiB
Duration : 1h 55mn
Overall bit rate : 2 933 Kbps
Movie name : Alien
Encoded date : UTC 2016-08-22 11:13:34
Writing application : mkvmerge v9.2.0 ('Photograph') 64bit
Writing library : libebml v1.3.3 + libmatroska v1.4.4

Video
ID : 1
Format : HEVC
Format/Info : High Efficiency Video Coding
Format profile : Main [email protected]@Main
Codec ID : V_MPEGH/ISO/HEVC
Duration : 1h 55mn
Bit rate : 2 490 Kbps
Width : 1 920 pixels
Height : 816 pixels
Display aspect ratio : 2.35:1
Frame rate mode : Constant
Frame rate : 23.976 (24000/1001) fps
Color space : YUV
Chroma subsampling : 4:2:0
Bit depth : 10 bits
Bits/(Pixel*Frame) : 0.066
Stream size : 2.01 GiB (85%)
Writing library : x265 1.9+200-6098ba3e0cf16b11:[Windows][GCC 5.3.0][64 bit] 10bit
Encoding settings : wpp / ctu=64 / min-cu-size=8 / max-tu-size=32 / tu-intra-depth=1 / tu-inter-depth=1 / me=1 / subme=2 / merange=57 / no-rect / no-amp / max-merge=2 / temporal-mvp / no-early-skip / recursion-skip / rdpenalty=0 / no-tskip / no-tskip-fast / strong-intra-smoothing / no-lossless / no-cu-lossless / no-constrained-intra / no-fast-intra / open-gop / no-temporal-layers / interlace=0 / keyint=250 / min-keyint=23 / scenecut=40 / rc-lookahead=20 / lookahead-slices=5 / bframes=4 / bframe-bias=0 / b-adapt=2 / ref=3 / limit-refs=3 / no-limit-modes / weightp / no-weightb / aq-mode=1 / qg-size=32 / aq-strength=1.00 / cbqpoffs=0 / crqpoffs=0 / rd=3 / psy-rd=2.00 / rdoq-level=0 / psy-rdoq=0.00 / no-rd-refine / signhide / deblock=0:0 / sao / no-sao-non-deblock / b-pyramid / cutree / no-intra-refresh / rc=2 / pass / bitrate=2490 / qcomp=0.60 / qpmin=0 / qpmax=51 / qpstep=4 / cplxblur=20.0 / qblur=0.5 / ipratio=1.40 / pbratio=1.30
Default : Yes
Forced : No

Audio
ID : 2
Format : AAC
Format/Info : Advanced Audio Codec
Format profile : LC
Codec ID : A_AAC
Duration : 1h 55mn
Bit rate : 329 Kbps
Channel(s) : 6 channels
Channel positions : Front: L C R, Side: L R, LFE
Sampling rate : 48.0 KHz
Frame rate : 46.875 fps (1024 spf)
Compression mode : Lossy
Delay relative to video : 20ms
Stream size : 272 MiB (11%)
Language : English
Default : No
Forced : No

Text #1
ID : 3
Format : VobSub
Muxing mode : zlib
Codec ID : S_VOBSUB
Codec ID/Info : Picture based subtitle format used on DVDs
Duration : 1h 53mn
Bit rate : 5 071 bps
Count of elements : 1049
Stream size : 4.10 MiB (0%)
Language : English
Default : No
Forced : No

Text #2
ID : 4
Format : VobSub
Muxing mode : zlib
Codec ID : S_VOBSUB
Codec ID/Info : Picture based subtitle format used on DVDs
Duration : 1h 55mn
Bit rate : 11.9 Kbps
Count of elements : 1912
Stream size : 9.81 MiB (0%)
Title : Commentary
Language : English
Default : No
Forced : No

Text #3
ID : 5
Format : VobSub
Muxing mode : zlib
Codec ID : S_VOBSUB
Codec ID/Info : Picture based subtitle format used on DVDs
Duration : 1h 53mn
Bit rate : 3 105 bps
Count of elements : 769
Stream size : 2.53 MiB (0%)
Language : Portuguese
Default : No
Forced : No

Text #4
ID : 6
Format : VobSub
Muxing mode : zlib
Codec ID : S_VOBSUB
Codec ID/Info : Picture based subtitle format used on DVDs
Duration : 1h 53mn
Bit rate : 2 752 bps
Count of elements : 762
Stream size : 2.24 MiB (0%)
Language : Danish
Default : No
Forced : No

Text #5
ID : 7
Format : VobSub
Muxing mode : zlib
Codec ID : S_VOBSUB
Codec ID/Info : Picture based subtitle format used on DVDs
Duration : 1h 55mn
Bit rate : 9 212 bps
Count of elements : 1849
Stream size : 7.62 MiB (0%)
Title : Commentary
Language : Danish
Default : No
Forced : No

Text #6
ID : 8
Format : VobSub
Muxing mode : zlib
Codec ID : S_VOBSUB
Codec ID/Info : Picture based subtitle format used on DVDs
Duration : 1h 53mn
Bit rate : 2 932 bps
Count of elements : 704
Stream size : 2.39 MiB (0%)
Language : Finnish
Default : No
Forced : No

Text #7
ID : 9
Format : VobSub
Muxing mode : zlib
Codec ID : S_VOBSUB
Codec ID/Info : Picture based subtitle format used on DVDs
Duration : 1h 55mn
Bit rate : 7 669 bps
Count of elements : 1481
Stream size : 6.34 MiB (0%)
Title : Commentary
Language : Finnish
Default : No
Forced : No

Text #8
ID : 10
Format : VobSub
Muxing mode : zlib
Codec ID : S_VOBSUB
Codec ID/Info : Picture based subtitle format used on DVDs
Duration : 1h 53mn
Bit rate : 2 973 bps
Count of elements : 680
Stream size : 2.42 MiB (0%)
Language : French
Default : No
Forced : No

Text #9
ID : 11
Format : VobSub
Muxing mode : zlib
Codec ID : S_VOBSUB
Codec ID/Info : Picture based subtitle format used on DVDs
Duration : 1h 55mn
Bit rate : 10.3 Kbps
Count of elements : 1862
Stream size : 8.48 MiB (0%)
Title : Commentary
Language : French
Default : No
Forced : No

Text #10
ID : 12
Format : VobSub
Muxing mode : zlib
Codec ID : S_VOBSUB
Codec ID/Info : Picture based subtitle format used on DVDs
Duration : 1h 53mn
Bit rate : 3 347 bps
Count of elements : 783
Stream size : 2.72 MiB (0%)
Language : German
Default : No
Forced : No

Text #11
ID : 13
Format : VobSub
Muxing mode : zlib
Codec ID : S_VOBSUB
Codec ID/Info : Picture based subtitle format used on DVDs
Duration : 1h 53mn
Bit rate : 35 bps
Count of elements : 8
Stream size : 29.5 KiB (0%)
Title : Forced
Language : German
Default : No
Forced : No

Text #12
ID : 14
Format : VobSub
Muxing mode : zlib
Codec ID : S_VOBSUB
Codec ID/Info : Picture based subtitle format used on DVDs
Duration : 1h 55mn
Bit rate : 11.7 Kbps
Count of elements : 1949
Stream size : 9.66 MiB (0%)
Title : Commentary
Language : German
Default : No
Forced : No

Text #13
ID : 15
Format : VobSub
Muxing mode : zlib
Codec ID : S_VOBSUB
Codec ID/Info : Picture based subtitle format used on DVDs
Duration : 1h 53mn
Bit rate : 4 076 bps
Count of elements : 844
Stream size : 3.31 MiB (0%)
Language : Spanish
Default : No
Forced : No

Text #14
ID : 16
Format : VobSub
Muxing mode : zlib
Codec ID : S_VOBSUB
Codec ID/Info : Picture based subtitle format used on DVDs
Duration : 1h 53mn
Bit rate : 2 557 bps
Count of elements : 628
Stream size : 2.08 MiB (0%)
Language : Dutch
Default : No
Forced : No

Text #15
ID : 17
Format : VobSub
Muxing mode : zlib
Codec ID : S_VOBSUB
Codec ID/Info : Picture based subtitle format used on DVDs
Duration : 1h 55mn
Bit rate : 9 805 bps
Count of elements : 1812
Stream size : 8.11 MiB (0%)
Title : Commentary
Language : Dutch
Default : No
Forced : No

Text #16
ID : 18
Format : VobSub
Muxing mode : zlib
Codec ID : S_VOBSUB
Codec ID/Info : Picture based subtitle format used on DVDs
Duration : 1h 53mn
Bit rate : 2 805 bps
Count of elements : 729
Stream size : 2.28 MiB (0%)
Language : Norwegian Bokmal
Default : No
Forced : No

Text #17
ID : 19
Format : VobSub
Muxing mode : zlib
Codec ID : S_VOBSUB
Codec ID/Info : Picture based subtitle format used on DVDs
Duration : 1h 55mn
Bit rate : 9 635 bps
Count of elements : 1851
Stream size : 7.97 MiB (0%)
Title : Commentary
Language : Norwegian Bokmal
Default : No
Forced : No

Text #18
ID : 20
Format : VobSub
Muxing mode : zlib
Codec ID : S_VOBSUB
Codec ID/Info : Picture based subtitle format used on DVDs
Duration : 1h 53mn
Bit rate : 2 698 bps
Count of elements : 713
Stream size : 2.19 MiB (0%)
Language : Swedish
Default : No
Forced : No

Text #19
ID : 21
Format : VobSub
Muxing mode : zlib
Codec ID : S_VOBSUB
Codec ID/Info : Picture based subtitle format used on DVDs
Duration : 1h 55mn
Bit rate : 8 869 bps
Count of elements : 1831
Stream size : 7.34 MiB (0%)
Title : Commentary
Language : Swedish
Default : No
Forced : No

Menu
00:00:00.000 : en:Chapter 01
00:02:01.121 : en:Chapter 02
00:04:40.154 : en:Chapter 03
00:07:55.850 : en:Chapter 04
00:09:10.508 : en:Chapter 05
00:12:40.426 : en:Chapter 06
00:14:16.105 : en:Chapter 07
00:20:05.913 : en:Chapter 08
00:23:22.651 : en:Chapter 09
00:25:05.253 : en:Chapter 10
00:27:50.877 : en:Chapter 11
00:31:51.826 : en:Chapter 12
00:35:32.922 : en:Chapter 13
00:37:04.347 : en:Chapter 14
00:40:33.889 : en:Chapter 15
00:43:26.520 : en:Chapter 16
00:47:28.303 : en:Chapter 17
00:50:06.128 : en:Chapter 18
00:51:44.309 : en:Chapter 19
00:54:24.678 : en:Chapter 20
00:59:01.746 : en:Chapter 21
01:00:26.873 : en:Chapter 22
01:03:36.312 : en:Chapter 23
01:08:18.719 : en:Chapter 24
01:10:04.950 : en:Chapter 25
01:12:52.409 : en:Chapter 26
01:14:33.927 : en:Chapter 27
01:17:14.713 : en:Chapter 28
01:19:02.904 : en:Chapter 29
01:22:34.282 : en:Chapter 30
01:26:39.235 : en:Chapter 31
01:28:49.574 : en:Chapter 32
01:30:48.734 : en:Chapter 33
01:32:39.762 : en:Chapter 34
01:34:23.783 : en:Chapter 35
01:37:45.150 : en:Chapter 36
01:39:14.448 : en:Chapter 37
01:43:28.243 : en:Chapter 38
01:46:17.954 : en:Chapter 39
01:53:05.361 : en:Chapter 40


Source Information

Code:

Unique ID : 18540560076676021316554451164376796793 (0xDF2C830161514C0E58F7399608B0E79)
Complete name : Alien_t08_apekat.mkv
File size : 24.6 GiB
Duration : 1h 55mn
Overall bit rate mode : Variable
Overall bit rate : 30.4 Mbps