HUB Portals

Name Masterchef The Professionals (2017) S10E20 (720p HD, soft Eng subs)
Size 1,014.0 MB
Category TV
Type HD
Language English
Date Added 7 months ago
Uploaded By ElsonRoa
Downloads 7
Seeders 3
Leechers 0
Info 627D9E7B64DC59B9671EDAA433ECAADD66BC8A8F
Download
Note: Magnet link will launch on download if torrent file is blocked.

Description

Masterchef The Professionals (2017) S10E20 (720p HD, soft Eng subs)

It is finals week and the competition is racing to the finish line. After six weeks of intense culinary battles, just four talented chefs remain from the original 48. As the tension rises, the chefs need to pull out all the stops for presenter Gregg Wallace and leading chefs Monica Galetti and Michelin-starred Marcus Wareing. Only one chef can be crowned MasterChef: The Professionals Champion of 2017.
In the penultimate challenge, the four remaining chefs fight to secure their place amongst the final three. First, they must face a cook-off against each other in the MasterChef kitchen. For one chef, this will be the end of the competition, as only three can take the next step - being sent to the south of France to learn in the two Michelin-starred kitchens of the 4th best restaurant in the world, Mirazur.
The judges begin by setting the four finalists a simple brief in the MasterChef kitchen - they are tasked with creating a single showstopping dish which draws inspiration from where they are from. In 90 minutes, they must go all out to cook the dish of their professional lives. At this point in the competition, there is nowhere to hide from the judge's scrutiny and one finalist is sent home.
The remaining three finalists then travel to Menton in the south of France. This small town sits close to the Italian border and it is here that inspirational Argentinian chef Mauro Colegreco came in 2006 and established restaurant Mirazur, putting the town firmly on the culinary map. Within a year of opening, Mirazur had been awarded its first Michelin star and within five years it achieved its second. Inspired by its situation in the stunning landscape, Colegreco's food highlights his love and respect for the land, sea and mountains of the region. The restaurant regularly makes it into the prestigious World's 50 Best Restaurants list and, in 2017, sits in 4th place. It is frequented by diners who travel there from across the world, and who have to book months in advance to secure a table.

(with soft subtitles)

First broadcast: 20 December 2017
Duration: 1 hour


Media info:-
General
Format : MPEG-4
Format profile : Base Media
Codec ID : isom (isom/iso2/avc1/mp41)
File size : 1 014 MiB
Duration : 59mn 6s
Overall bit rate mode : Variable
Overall bit rate : 2 400 Kbps
Writing application : Lavf57.25.100


Video
ID : 1
Format : AVC
Format/Info : Advanced Video Codec
Format profile : [email protected]
Format settings, CABAC : Yes
Format settings, ReFrames : 2 frames
Codec ID : avc1
Codec ID/Info : Advanced Video Coding
Duration : 59mn 6s
Bit rate mode : Variable
Bit rate : 2 301 Kbps
Maximum bit rate : 3 500 Kbps
Width : 1 280 pixels
Height : 720 pixels
Display aspect ratio : 16:9
Frame rate mode : Constant
Frame rate : 25.000 fps
Color space : YUV
Chroma subsampling : 4:2:0
Bit depth : 8 bits
Scan type : Progressive
Bits/(Pixel*Frame) : 0.100
Stream size : 973 MiB (96%)

Audio
ID : 2
Format : AAC
Format/Info : Advanced Audio Codec
Format profile : LC
Codec ID : 40
Duration : 59mn 5s
Bit rate mode : Variable
Bit rate : 93.4 Kbps
Maximum bit rate : 126 Kbps
Channel(s) : 2 channels
Channel positions : Front: L R
Sampling rate : 48.0 KHz
Frame rate : 46.875 fps (1024 spf)
Compression mode : Lossy
Stream size : 39.5 MiB (4%)