HUB Portals

Name Gomorra S03 E10 - 1080p x264 - ITA (ENG SUBS) [BRSHNKV]
Size 471.8 MB
Category TV
Type HD
Language Italian
Date Added 10 months ago
Uploaded By Baryshnikov
Downloads 23229
Seeders 50
Leechers 0
Info 3A6A556B9EE6500CDEAF536C9C568D56BA25E61C
Download
Note: Magnet link will launch on download if torrent file is blocked.

Description








Tech:

Format : MPEG-4
Format profile : Base Media / Version 2
Codec ID : mp42
File size : 472 MiB
Duration : 43mn 22s
Overall bit rate mode : Variable
Overall bit rate : 1 521 Kbps
Movie name : Gomorra S03 E10 - 1080p x264 [BRSHNKV]
Encoded date : UTC 2017-12-18 17:41:34
Tagged date : UTC 2017-12-18 17:41:34
Writing application : HandBrake 1.0.2 2017012200

Video
ID : 1
Format : AVC
Format/Info : Advanced Video Codec
Format profile : [email protected]
Format settings, CABAC : Yes
Format settings, ReFrames : 4 frames
Codec ID : avc1
Codec ID/Info : Advanced Video Coding
Duration : 43mn 22s
Bit rate : 1 350 Kbps
Width : 1 920 pixels
Height : 1 040 pixels
Display aspect ratio : 1.85:1
Frame rate mode : Constant
Frame rate : 25.000 fps
Color space : YUV
Chroma subsampling : 4:2:0
Bit depth : 8 bits
Scan type : Progressive
Bits/(Pixel*Frame) : 0.027
Stream size : 419 MiB (89%)
Writing library : x264 core 148 r2708 86b7198
Encoded date : UTC 2017-12-18 17:41:34
Tagged date : UTC 2017-12-18 17:41:34
Color range : Limited
Color primaries : BT.709
Transfer characteristics : BT.709
Matrix coefficients : BT.709

Audio
ID : 2
Format : AAC
Format/Info : Advanced Audio Codec
Format profile : LC
Codec ID : 40
Duration : 43mn 22s
Bit rate mode : Variable
Bit rate : 165 Kbps
Channel(s) : 2 channels
Channel positions : Front: L R
Sampling rate : 48.0 KHz
Compression mode : Lossy
Stream size : 51.0 MiB (11%)
Title : Stereo / Stereo
Language : Italian
Encoded date : UTC 2017-12-18 17:41:34
Tagged date : UTC 2017-12-18 17:41:34