HUB Portals

Name Fleetwood Mac - 1977 - Rumours (vinyl) (24-96)
Size 722.8 MB
Category Music
Type Lossless
Language English
Date Added 5 months ago
Uploaded By KATJohnRambo
Downloads 132
Seeders 1
Leechers 1
Info FFA0FA39987B30E7BEA7C16A8E53E48459D9096C
Download
Note: Magnet link will launch on download if torrent file is blocked.

Description





--------------------------------------------------------------------------------
Analyzed: Fleetwood Mac / Rumours
--------------------------------------------------------------------------------

DR         Peak         RMS     Duration Track
--------------------------------------------------------------------------------
DR15      -0.86 dB   -18.38 dB      2:46 01-Second Hand News
DR16      -0.29 dB   -18.93 dB      4:17 02-Dreams
DR14      -2.62 dB   -22.40 dB      2:14 03-Never Going Back Again
DR15      -1.18 dB   -18.75 dB      3:13 04-Don't Stop
DR14      -0.92 dB   -17.52 dB      3:39 05-Go Your Own Way
DR15      -9.14 dB   -28.84 dB      3:22 06-Songbird
DR16       0.00 dB   -20.00 dB      4:31 07-The Chain
DR14      -1.88 dB   -19.24 dB      3:33 08-You Make Loving Fun
DR16       0.00 dB   -18.52 dB      3:17 09-I Don't Want To Know
DR16      -0.77 dB   -20.89 dB      3:52 10-Oh Daddy
DR16      -3.49 dB   -23.06 dB      4:54 11-Gold Dust Woman
--------------------------------------------------------------------------------

Number of tracks:  11
Official DR value: DR15

Samplerate:        96000 Hz
Channels:          2
Bits per sample:   24
Bitrate:           2422 kbps
Codec:             FLAC
================================================================================

[Not My Rip]

Enjoy :-)